Angel Has Fallen Filmyanju

  • Angel Has Fallen is a movie starring Gerard Butler, Frederick Schmidt, and Danny Huston. Mike Banning is framed for the attempted assassination of the President and must evade his own agency and the FBI as he tries to uncover the
  • 2019
  • Ric Roman Waugh
  • rating=63273 Vote
  • USA
  • &ref(https://m.media-amazon.com/images/M/MV5BYmRmMWZhZGItYzA4MC00ZDYyLWE0OTMtYmM0MWRiN2Q4NGU2XkEyXkFqcGdeQXVyMjMxOTE0ODA@._V1_UY190_CR0,0,128,190_AL_.jpg)
*
↓↓↓↓↓↓↓↓
stream
svtplay-se.com/#
????????

H.264 is typically used for lossy compression, although it is also possible to create truly lossless-coded regions within lossy-coded pictures or to support rare use cases for which the entire encoding is lossless. Angel Has Fallen 2019 English Movie 720p HDCAM 900MB Download (With images) | English movies, New movies, Full movies free. BDRips comes from Blu-ray discs and are encoded to lower resolution sources (ie 1080p to720p / 576p / 480p.
Presidente bajo fuego (2019) AMZN WEB-DL 1080p Format: Matroska Format version: Version 4 File size: 8. 43 GiB Duration: 2 h 1 min Overall bit rate: 9 977 kb/s Movie name: Presidente bajo fuego (2019) - Encoded date: UTC 2019-11-13 23:03:42 Writing application: mkvmerge v38. 0. 0 ('The Silent Type') 64-bit Writing library: libebml v1. 3. 9 + libmatroska v1. 5. 2 Video ID: 1 Format: AVC Format/Info: Advanced Video Codec Format profile: High@L4 Format settings: CABAC / 4 Ref Frames Format settings, CABAC: Yes Format settings, ReFrames: 4 frames Codec ID: V_MPEG4/ISO/AVC Bit rate mode: Constant Bit rate: 8 886 kb/s Nominal bit rate: 10 000 kb/s Width: 1 920 pixels Height: 800 pixels Display aspect ratio: 2. 40:1 Frame rate mode: Constant Frame rate: 23. 976 (24000/1001) FPS Color space: YUV Chroma subsampling: 4:2:0 Bit depth: 8 bits Scan type: Progressive Bits/(Pixel*Frame): 0. 241 Stream size: 7. 51 GiB (89%) Title: CinemaniaHDD Default: Yes Forced: No Color range: Limited Color primaries: BT. 709 Transfer characteristics: BT. 709 Matrix coefficients: BT. 709 Audio #1 ID: 2 Format: AC-3 Format/Info: Audio Coding 3 Commercial name: Dolby Digital Codec ID: A_AC3 Bit rate: 448 kb/s Channel(s): 6 channels Channel layout: L R C LFE Ls Rs Sampling rate: 48. 0 kHz Frame rate: 31. 250 FPS (1536 SPF) Bit depth: 16 bits Compression mode: Lossy Stream size: 388 MiB (4%) Title: Español latino [CinemaniaHDD] Language: Spanish Service kind: Complete Main Default: No Audio #2 ID: 3 Format: E-AC-3 Format/Info: Enhanced AC-3 Commercial name: Dolby Digital Plus Codec ID: A_EAC3 Bit rate: 640 kb/s Stream size: 554 MiB (6%) Title: Inglés [CinemaniaHDD] Language: English Text #1 ID: 4 Format: UTF-8 Codec ID: S_TEXT/UTF8 Codec ID/Info: UTF-8 Plain Text Duration: 1 h 3 min Bit rate: 0 b/s Count of elements: 2 Stream size: 71. 0 Bytes (0%) Title: Forzados [CinemaniaHDD] Forced: Yes Text #2 ID: 5 Duration: 1 h 51 min Bit rate: 68 b/s Count of elements: 1469 Stream size: 55. 5 KiB (0%) Text #3 ID: 6 Duration: 1 h 52 min Bit rate: 63 b/s Count of elements: 1580 Stream size: 52. 6 KiB (0%) Menu 00:00:00. 000: en:Studio Logo 00:00:38. 000: en:Scene 2 00:01:27. 000: en:Title Sequence 00:01:32. 000: en:Scene 4 00:06:49. 000: en:Scene 5 00:08:21. 000: en:Scene 6 00:09:07. 000: en:Scene 7 00:11:33. 000: en:Scene 8 00:16:00. 000: en:Scene 9 00:23:14. 000: en:Scene 10 00:28:36. 000: en:Scene 11 00:32:28. 000: en:Scene 12 00:39:40. 000: en:Scene 13 00:41:01. 000: en:Scene 14 00:42:07. 000: en:Scene 15 00:50:56. 000: en:Scene 16 00:53:04. 000: en:Scene 17 00:57:43. 000: en:Scene 18 00:59:23. 000: en:Scene 19 01:03:06. 000: en:Scene 20 01:06:10. 000: en:Scene 21 01:10:46. 000: en:Scene 22 01:16:26. 000: en:Scene 23 01:19:23. 000: en:Scene 24 01:24:11. 000: en:Scene 25 01:30:10. 000: en:Scene 26 01:39:41. 000: en:Scene 27 01:44:27. 000: en:Scene 28 01:50:53. 000: en:End Credits.
Justice League Dark: Apokolips War Movie 2020 Full HD ~ Pelicula Completa Play Here.. ?? Justice League Dark: Apokolips War full movie Hd Justice League Dark: Apokolips War full movie Free... Justice League Dark: Apokolips War movie watch Justice League Dark: Apokolips War pelicula completa Justice League Dark: Apokolips War film complet Justice League Dark: Apokolips War film completo Justice League Dark: Apokolips War movie Online free watch Justice League Dark: Apokolips War movie sub See More Raid Movie 2018 Full HD ~ Pelicula Completa Play Here.. ?? Raid full movie Hd Raid full movie Free... Raid movie watch Raid pelicula completa Raid film complet Raid film completo Raid movie Online free watch Raid movie sub See More todos los videos solo reproducen pantallas oscuras.
This 3 rd part in the triology was not as good as the first 2. Average at best. Details Official Sites: Official Site Country: USA Language: English Release Date: 21 August 2019 (Indonesia) See more ? Also Known As: Agente bajo fuego See more ? Filming Locations: Berkshire, England, UK See more ? Edit Box Office Budget:$40, 000, 000 (estimated) Opening Weekend USA: $21, 380, 987, 25 August 2019 Gross USA: $23, 202, 065 Cumulative Worldwide Gross: $25, 559, 270 Watch Angel Has Fallen (2019): Full Movie Online Free Secret Service Agent Mike Banning is framed for the attempted assassination of the President and must evade his own agency and the FBI as he tries to uncover the real threat. WATCH NOW >>>>>> WATCH NOW >>>>>> WATCH NOW >>>>>>
If You liked our service and the quality of the movies You can tell your friends about it. Movie in theater or to enjoy the full movie at your home either way. As always it depends on what you expect. If it is Shakespeare-like award winning drama then you are probably wrong. But if it is a well done action hero movie with superb shooting scenes, nice acting by butler, freeman & Nolte and some humor on the top, then go and see it. Of course you know after max 10
Minutes who the clichee bad guys are but it does not affect the movie in a negative way. And you simply have to live the scene during the credits...

https://seesaawiki.jp/bitokubi/d/FUZj9dYpv

tosuyakuba.therestaurant.jp/posts/8284796

https://form.run/@spider-man-far-from-home-free-st...

https://7gogo.jp/Zjv7mtSCsRSU

seesaawiki.jp/betabota/d/%A2%E1Vumoo%A2%E1%20Angel%20Has%20Fallen%20Watch%20Online

Watch Full Length Forrest Gump HD 720P For Free

http://sizurpetu.unblog.fr/2020/05/17/%e2%81%bdkis...

tohameimuhi.wordpress.com/2020/05/17/the-deer-hunter-free-watch-cast-john-savage-full-movie-hd-720p

https://seesaawiki.jp/chikenka/d/Download%20Movie%...
menyakuha.localinfo.jp/posts/8278720

Angel Has Fallen
4.9 stars - Smith Amanda

コメントをかく


「http://」を含む投稿は禁止されています。

利用規約をご確認のうえご記入下さい

Menu

メニューサンプル1

メニューサンプル2

開くメニュー

閉じるメニュー

  • アイテム
  • アイテム
  • アイテム
【メニュー編集】

管理人/副管理人のみ編集できます